<?xml version="1.0" standalone="no"?>
<!DOCTYPE svg PUBLIC "-//W3C//DTD SVG 1.1//EN" "http://www.w3.org/Graphics/SVG/1.1/DTD/svg11.dtd" >
<svg xmlns="http://www.w3.org/2000/svg" xmlns:xlink="http://www.w3.org/1999/xlink" version="1.1">
<metadata>
Created by FontForge 20170731 at Sat Jan 21 10:05:34 2023
 By Aleksey,,,
</metadata>
<defs>
<font id="NotoSansKR-Regular-Alphabetic" horiz-adv-x="2048" vert-adv-y="2048" >
  <font-face 
    font-family="NotoSansKR-Regular-Alphabetic"
    font-weight="400"
    font-stretch="normal"
    units-per-em="2048"
    panose-1="2 0 5 3 0 0 0 0 0 0"
    ascent="1638"
    descent="-410"
    bbox="59 -512 1985 1655"
    underline-thickness="102"
    underline-position="-307"
    unicode-range="U+FF21-FF5A"
  />
<missing-glyph horiz-adv-x="748" 
d="M68 0v1365h544v-1365h-544zM136 68h408v1229h-408v-1229z" />
    <glyph glyph-name=".notdef" horiz-adv-x="748" 
d="M68 0v1365h544v-1365h-544zM136 68h408v1229h-408v-1229z" />
    <glyph glyph-name=".null" horiz-adv-x="0" vert-adv-y="0" 
 />
    <glyph glyph-name="nonmarkingreturn" horiz-adv-x="682" 
 />
    <glyph glyph-name="uniE6C7" unicode="&#xff21;" 
d="M322 0l573 1505h231l580 -1505h-207l-170 459h-639l-170 -459h-198zM735 606h551l-90 240q-17 47 -82 226.5t-100 279.5h-8q-25 -77 -181 -506z" />
    <glyph glyph-name="uniE6C8" unicode="&#xff22;" 
d="M492 0v1505h509q281 0 427.5 -88t146.5 -282q0 -115 -61.5 -203t-180.5 -123v-10q159 -27 247.5 -119.5t88.5 -239.5q0 -228 -154 -334t-471 -106h-552zM680 864h291q215 0 314 59t99 187q0 133 -95 189.5t-302 56.5h-307v-492zM680 152h342q240 0 349.5 66t109.5 228
q0 140 -111 205.5t-354 65.5h-336v-565z" />
    <glyph glyph-name="uniE6C9" unicode="&#xff23;" 
d="M1157 -25q-161 0 -297 54t-234 152.5t-153 245t-55 323.5q0 236 94.5 413.5t264 272t390.5 94.5q146 0 267 -52.5t206 -134.5l-108 -122q-71 66 -164.5 104.5t-198.5 38.5q-254 0 -405.5 -165t-151.5 -443q0 -280 151 -446.5t402 -166.5q231 0 412 170l106 -123
q-107 -107 -234.5 -161t-291.5 -54z" />
    <glyph glyph-name="uniE6CA" unicode="&#xff24;" 
d="M457 0v1505h415q395 0 601 -193t206 -552q0 -361 -205 -560.5t-591 -199.5h-426zM641 158h219q307 0 466 155t159 447q0 289 -158.5 438.5t-466.5 149.5h-219v-1190z" />
    <glyph glyph-name="uniE6CB" unicode="&#xff25;" 
d="M571 0v1505h985v-162h-796v-473h641v-161h-641v-547h823v-162h-1012z" />
    <glyph glyph-name="uniE6CC" unicode="&#xff26;" 
d="M610 0v1505h987v-162h-798v-509h647v-162h-647v-672h-189z" />
    <glyph glyph-name="uniE6CD" unicode="&#xff27;" 
d="M1130 -27q-226 0 -399.5 92.5t-271 270t-97.5 414.5q0 177 58 324t161 247t246.5 154.5t311.5 54.5q287 0 495 -187l-108 -122q-161 143 -383 143q-261 0 -423.5 -165.5t-162.5 -442.5q0 -284 159 -449.5t435 -165.5q96 0 186 23.5t142 64.5v392h-383v157h557v-631
q-201 -174 -523 -174z" />
    <glyph glyph-name="uniE6CE" unicode="&#xff28;" 
d="M414 0v1505h190v-633h842v633h188v-1505h-188v709h-842v-709h-190z" />
    <glyph glyph-name="uniE6CF" unicode="&#xff29;" 
d="M510 0v160h420v1181h-420v164h1032v-164h-424v-1181h424v-160h-1032z" />
    <glyph glyph-name="uniE6D0" unicode="&#xff2a;" 
d="M961 -25q-307 0 -465 244l135 98q118 -176 311 -176q291 0 291 320v1044h190v-1063q0 -100 -27 -183t-81.5 -147.5t-144.5 -100.5t-209 -36z" />
    <glyph glyph-name="uniE6D1" unicode="&#xff2b;" 
d="M498 0v1505h188v-772h8l750 772h219l-545 -575l629 -930h-215l-531 795l-315 -324v-471h-188z" />
    <glyph glyph-name="uniE6D2" unicode="&#xff2c;" 
d="M623 0v1505h188v-1343h774v-162h-962z" />
    <glyph glyph-name="uniE6D3" unicode="&#xff2d;" 
d="M315 0v1505h228l350 -807q25 -60 71.5 -173.5t57.5 -139.5h8q24 56 66 162t61 151l346 807h230v-1505h-177v831q0 141 23 447h-10l-144 -346l-340 -780h-127l-342 780l-141 346h-8q20 -332 20 -447v-831h-172z" />
    <glyph glyph-name="uniE6D4" unicode="&#xff2e;" 
d="M424 0v1505h192l639 -940l205 -319h10q-24 257 -24 479v780h182v-1505h-196l-639 942l-201 318h-10q20 -304 20 -472v-788h-178z" />
    <glyph glyph-name="uniE6D5" unicode="&#xff2f;" 
d="M1024 -25q-212 0 -376.5 94.5t-257.5 273t-93 415.5q0 178 53.5 323.5t149.5 243.5t230 151.5t294 53.5t294 -53.5t230 -151.5t149.5 -243.5t53.5 -323.5q0 -237 -90.5 -415t-255 -273t-381.5 -95zM1024 141q240 0 386 168t146 449q0 279 -145.5 442.5t-386.5 163.5
t-386.5 -163.5t-145.5 -442.5q0 -281 146.5 -449t385.5 -168z" />
    <glyph glyph-name="uniE6D6" unicode="&#xff30;" 
d="M518 0v1505h479q151 0 265 -23.5t199 -75t129 -137.5t44 -206q0 -116 -44 -205t-126.5 -146t-197 -85.5t-258.5 -28.5h-301v-598h-189zM707 752h274q235 0 350 74.5t115 236.5q0 160 -115.5 223.5t-359.5 63.5h-264v-598z" />
    <glyph glyph-name="uniE6D7" unicode="&#xff31;" 
d="M1548 -377q-227 0 -384.5 97t-235.5 260q-285 33 -458 242t-173 536q0 177 53.5 323t149 244t229.5 151.5t293 53.5q158 0 292 -53.5t230.5 -151.5t150.5 -244t54 -323q0 -321 -169 -528t-445 -244q56 -99 172.5 -152t267.5 -53q89 0 182 29l39 -146q-91 -41 -248 -41z
M1022 131q239 0 385.5 170t146.5 457q0 279 -146 442.5t-386 163.5q-241 0 -387 -163.5t-146 -442.5q0 -287 146 -457t387 -170z" />
    <glyph glyph-name="uniE6D8" unicode="&#xff32;" 
d="M520 0v1505h516q598 0 598 -424q0 -171 -106.5 -276.5t-296.5 -138.5l455 -666h-216l-430 637h-340v-637h-180zM700 788h308q434 0 434 293q0 145 -108.5 207t-325.5 62h-308v-562z" />
    <glyph glyph-name="uniE6D9" unicode="&#xff33;" 
d="M1042 -27q-182 0 -336.5 61t-271.5 169l115 131q95 -88 228.5 -140.5t269.5 -52.5q168 0 273 64t105 176q0 45 -17.5 83t-41.5 63t-69.5 50.5t-81.5 40t-97 37.5l-244 86q-354 128 -354 383q0 180 150 293t383 113q154 0 286 -51t228 -140l-105 -125q-182 150 -411 150
q-149 0 -243.5 -58.5t-94.5 -160.5q0 -35 12 -66t37 -55.5t50 -42.5t65.5 -36t67.5 -28.5t71 -25.5l241 -86q79 -28 140 -62.5t113 -82.5t80 -115t28 -148q0 -186 -157 -305t-419 -119z" />
    <glyph glyph-name="uniE6DA" unicode="&#xff34;" 
d="M928 0v1346h-539v159h1270v-159h-541v-1346h-190z" />
    <glyph glyph-name="uniE6DB" unicode="&#xff35;" 
d="M1024 -27q-104 0 -192.5 21t-166 69t-131.5 122t-85 185.5t-31 252.5v882h186v-889q0 -130 33 -225t92.5 -148t132.5 -77.5t162 -24.5q90 0 164 24.5t134.5 77.5t94 148t33.5 225v889h190v-882q0 -141 -31.5 -252t-87 -185t-134 -122.5t-168.5 -69.5t-195 -21z" />
    <glyph glyph-name="uniE6DC" unicode="&#xff36;" 
d="M915 0l-555 1505h199l291 -817q17 -48 53 -155.5t63 -184t58 -155.5h10q31 88 86.5 247.5t87.5 247.5l289 817h193l-555 -1505h-220z" />
    <glyph glyph-name="uniE6DD" unicode="&#xff37;" 
d="M438 0l-379 1505h195l195 -815q33 -153 112 -485h8q74 284 131 485l242 815h172l246 -817q25 -93 73 -266.5t60 -216.5h10q47 210 103 483l196 817h183l-369 -1505h-230l-270 905q-21 76 -88 346h-8q-11 -41 -41 -159.5t-49 -186.5l-266 -905h-226z" />
    <glyph glyph-name="uniE6DE" unicode="&#xff38;" 
d="M403 0l506 774l-473 731h211l244 -387q52 -85 139 -219h8q59 102 131 219l238 387h201l-471 -735l510 -770h-217l-259 406q-23 38 -74.5 117.5t-78.5 123.5h-8q-78 -126 -148 -241l-254 -406h-205z" />
    <glyph glyph-name="uniE6DF" unicode="&#xff39;" 
d="M930 0v586l-522 919h200l236 -424q110 -210 176 -329h8q108 185 182 329l234 424h196l-522 -919v-586h-188z" />
    <glyph glyph-name="uniE6E0" unicode="&#xff3a;" 
d="M442 0v115l914 1231h-844v159h1087v-112l-913 -1231h938v-162h-1182z" />
    <glyph glyph-name="uniE6E7" unicode="&#xff41;" 
d="M1331 289v293q-234 -18 -374.5 -57t-196 -92t-55.5 -130q0 -91 69.5 -134.5t177.5 -43.5q183 0 379 164zM1348 152h-7q-232 -177 -440 -177q-162 0 -270.5 84.5t-108.5 229.5q0 187 189.5 284.5t619.5 131.5q-2 60 -18 109.5t-50 89t-92 61.5t-137 22q-184 0 -389 -135
l-76 129q99 65 230.5 111.5t265.5 46.5q223 0 338 -120.5t115 -334.5v-684h-154z" />
    <glyph glyph-name="uniE6E8" unicode="&#xff42;" 
d="M1069 -25q-204 0 -377 140h-8l-18 -115h-150v1630h189v-448l-9 -201q216 158 416 158q242 0 371 -153.5t129 -410.5q0 -138 -43 -252.5t-117 -189.5t-172.5 -116.5t-210.5 -41.5zM1034 131q165 0 274 120t109 320q0 188 -87 299t-267 111q-167 0 -358 -152v-577
q159 -121 329 -121z" />
    <glyph glyph-name="uniE6E9" unicode="&#xff43;" 
d="M1128 -25q-175 0 -312.5 68t-217.5 201t-80 311q0 180 86 314.5t226 202t311 67.5q234 0 405 -160l-92 -121q-142 123 -307 123q-192 0 -313 -118.5t-121 -307.5q0 -191 118.5 -307.5t311.5 -116.5q186 0 346 139l84 -123q-191 -172 -445 -172z" />
    <glyph glyph-name="uniE6EA" unicode="&#xff44;" 
d="M952 -27q-232 0 -374 156t-142 426q0 132 44.5 243.5t119.5 185.5t173 115.5t206 41.5q112 0 197 -32t176 -97l-11 190l2 428h187v-1630h-152l-18 129h-6q-170 -156 -402 -156zM999 131q176 0 344 154v581q-155 117 -329 117q-162 0 -273.5 -119.5t-111.5 -306.5
q0 -194 102.5 -310t267.5 -116z" />
    <glyph glyph-name="uniE6EB" unicode="&#xff45;" 
d="M666 645h749q0 165 -93.5 255.5t-258.5 90.5q-149 0 -261.5 -94t-135.5 -252zM1477 227l65 -125q-194 -127 -450 -127q-171 0 -310.5 68.5t-223 202t-83.5 309.5q0 132 49.5 243.5t131.5 185t187 114.5t218 41q245 0 385.5 -142.5t140.5 -378.5q0 -50 -8 -108h-911
q6 -175 129.5 -280t316.5 -105q204 0 363 102z" />
    <glyph glyph-name="uniE6EC" unicode="&#xff46;" 
d="M893 0v963h-320v141l320 10v94q0 210 111 328.5t335 118.5q171 0 322 -64l-45 -139q-118 51 -258 51q-283 0 -283 -289v-100h469v-151h-469v-963h-182z" />
    <glyph glyph-name="uniE6ED" unicode="&#xff47;" 
d="M1194 -16h-240q-107 0 -170 18q-141 -80 -141 -188q0 -90 100.5 -143.5t286.5 -53.5t303 69t117 162q0 74 -62 105t-194 31zM1006 477q118 0 196 73t78 191q0 116 -80.5 190.5t-193.5 74.5q-118 0 -198.5 -74.5t-80.5 -190.5q0 -118 80.5 -191t198.5 -73zM938 137h272
q218 0 320 -62t102 -200q0 -104 -74 -191.5t-216.5 -141.5t-325.5 -54q-254 0 -394.5 81t-140.5 228q0 65 48 130t135 116v10q-115 60 -115 183q0 54 36.5 109t102.5 99v11q-141 109 -141 286q0 118 63.5 210t167.5 140t228 48q105 0 176 -25h454v-143h-293q49 -42 79 -103
t30 -131q0 -176 -126.5 -280.5t-319.5 -104.5q-115 0 -209 43q-88 -59 -88 -129q0 -129 229 -129z" />
    <glyph glyph-name="uniE6EE" unicode="&#xff48;" 
d="M535 0v1630h186v-440l-6 -236q101 88 206 137.5t230 49.5q187 0 285 -109.5t98 -326.5v-705h-188v680q0 157 -66.5 227t-196.5 70q-93 0 -177 -40.5t-185 -129.5v-807h-186z" />
    <glyph glyph-name="uniE6EF" unicode="&#xff49;" 
d="M932 0v1114h188v-1114h-188zM1024 1343q-63 0 -103 38.5t-40 99.5q0 63 40 101t103 38t103 -38t40 -101q0 -61 -40 -99.5t-103 -38.5z" />
    <glyph glyph-name="uniE6F0" unicode="&#xff4a;" 
d="M780 -498q-167 0 -315 74l59 141q123 -63 256 -63q158 0 220.5 76t62.5 227v1157h188v-1145q0 -107 -23.5 -188.5t-76.5 -146t-146.5 -98.5t-224.5 -34zM1155 1343q-63 0 -103 38.5t-40 99.5q0 63 40 101t103 38t103 -38t40 -101q0 -61 -40 -99.5t-103 -38.5z" />
    <glyph glyph-name="uniE6F1" unicode="&#xff4b;" 
d="M592 0v1630h184v-1108h6l570 590h211l-430 -444l491 -668h-209l-393 543l-246 -250v-293h-184z" />
    <glyph glyph-name="uniE6F2" unicode="&#xff4c;" 
d="M1270 -25q-179 0 -274 102.5t-95 299.5v1253h189v-1270q0 -229 219 -229q86 0 211 49l49 -141q-69 -24 -99.5 -33.5t-86.5 -20t-113 -10.5z" />
    <glyph glyph-name="uniE6F3" unicode="&#xff4d;" 
d="M158 0v1116h153l19 -166h6q207 191 409 191q258 0 349 -213q110 102 215 157.5t217 55.5q377 0 377 -436v-705h-187v680q0 153 -62 225t-192 72q-158 0 -340 -170v-807h-186v680q0 151 -63 224t-191 73q-162 0 -338 -170v-807h-186z" />
    <glyph glyph-name="uniE6F4" unicode="&#xff4e;" 
d="M532 0v1116h152l18 -166h7q105 90 210 140.5t230 50.5q387 0 387 -436v-705h-195v680q0 155 -64.5 226t-197.5 71q-94 0 -175 -40t-185 -130v-807h-187z" />
    <glyph glyph-name="uniE6F5" unicode="&#xff4f;" 
d="M1024 -25q-116 0 -221.5 40t-186.5 112.5t-128.5 183.5t-47.5 244q0 135 47.5 247t128.5 185t186 112.5t222 39.5t222 -39.5t186 -112.5t128.5 -185t47.5 -247q0 -133 -47.5 -244t-128.5 -183.5t-186.5 -112.5t-221.5 -40zM1024 131q173 0 279 116.5t106 307.5
t-106 308.5t-279 117.5q-172 0 -278.5 -118t-106.5 -308t106.5 -307t278.5 -117z" />
    <glyph glyph-name="uniE6F6" unicode="&#xff50;" 
d="M516 -469v1585h154l16 -133h8q220 158 418 158q241 0 369.5 -152t128.5 -416q0 -138 -43.5 -253t-118 -190t-173 -116t-210.5 -41q-186 0 -367 127l4 -145v-424h-186zM1032 131q169 0 276 119t107 321q0 195 -86 303.5t-268 108.5q-162 0 -359 -152v-579
q82 -62 169.5 -91.5t160.5 -29.5z" />
    <glyph glyph-name="uniE6F7" unicode="&#xff51;" 
d="M1341 -469l2 397l11 199q-182 -154 -400 -154q-235 0 -375.5 153.5t-140.5 428.5q0 132 45 243.5t120 185.5t173.5 115.5t206.5 41.5q196 0 373 -135h10l18 110h146v-1585h-189zM997 131q185 0 346 154v581q-152 117 -331 117q-160 0 -270.5 -119.5t-110.5 -306.5
q0 -199 98.5 -312.5t267.5 -113.5z" />
    <glyph glyph-name="uniE6F8" unicode="&#xff52;" 
d="M672 0v1114h155l17 -262h4q89 136 218 211.5t280 75.5q129 0 227 -45l-49 -160q-58 22 -101 30.5t-104 8.5q-278 0 -461 -320v-653h-186z" />
    <glyph glyph-name="uniE6F9" unicode="&#xff53;" 
d="M1049 -25q-156 0 -297 47.5t-250 124.5l90 123q101 -74 210.5 -112.5t252.5 -38.5q144 0 220.5 49t76.5 123q0 68 -81.5 119.5t-281.5 99.5q-424 106 -424 317q0 136 122.5 224t344.5 88q120 0 240.5 -40t208.5 -102l-90 -118q-166 116 -359 116q-147 0 -211.5 -44
t-64.5 -115q0 -34 24 -62.5t71.5 -52.5t105.5 -43.5t139 -40.5q235 -59 339.5 -134t104.5 -200q0 -139 -131.5 -233.5t-359.5 -94.5z" />
    <glyph glyph-name="uniE6FA" unicode="&#xff54;" 
d="M1239 -25q-119 0 -203.5 32.5t-133.5 95t-71 144t-22 189.5v527h-315v141l323 10l23 313h155v-313h549v-151h-549v-531q0 -157 63.5 -231t219.5 -74q136 0 268 49l41 -137q-183 -64 -348 -64z" />
    <glyph glyph-name="uniE6FB" unicode="&#xff55;" 
d="M899 -27q-186 0 -282.5 111.5t-96.5 325.5v706h189v-682q0 -155 64.5 -226t193.5 -71q95 0 179.5 45.5t178.5 143.5v790h186v-1116h-153l-17 176h-6q-98 -98 -203 -150.5t-233 -52.5z" />
    <glyph glyph-name="uniE6FC" unicode="&#xff56;" 
d="M920 0l-463 1116h192l252 -637q40 -101 123 -327h10q10 28 54 146t67 181l254 637h182l-454 -1116h-217z" />
    <glyph glyph-name="uniE6FD" unicode="&#xff57;" 
d="M516 0l-364 1116h190l203 -647q15 -59 44 -163.5t40 -145.5h12q19 66 90 305l205 651h182l209 -647q1 -3 94 -309h11q10 36 39 143t47 166l196 647h178l-350 -1116h-227l-193 600q-17 53 -48 159.5t-48 162.5h-10q-39 -143 -98 -326l-185 -596h-217z" />
    <glyph glyph-name="uniE6FE" unicode="&#xff58;" 
d="M489 0l420 582l-387 534h203l178 -248q16 -23 61.5 -87t69.5 -99h8q37 59 119 188l168 246h197l-389 -553l422 -563h-205l-195 260q-18 28 -147 201h-8q-95 -139 -134 -201l-184 -260h-197z" />
    <glyph glyph-name="uniE6FF" unicode="&#xff59;" 
d="M651 -479q-82 0 -149 24l39 150q48 -21 100 -21q200 0 293 240l31 84l-512 1118h196l269 -620q23 -51 67.5 -159t65.5 -157h10q68 188 113 316l237 620h184l-481 -1210q-36 -87 -77 -152.5t-96.5 -120.5t-128.5 -83.5t-161 -28.5z" />
    <glyph glyph-name="uniE700" unicode="&#xff5a;" 
d="M518 0v100l746 863h-668v151h917v-100l-741 -862h766v-152h-1020z" />
  </font>
</defs>
</svg>
